DNS SERVER AENDERNum der staatlichen Zensur zu umgehen. Sollten wir von eurem Provider geseprrt werden, nutzt den TOR BROWSER oder ändert euren DNS SERVER.

Filmwünsche können bei uns im Forum abgegeben werden

Wir Speichern Nicht




 
 
 
Top Releases
12.Strong.2018.MULTi.COMPLET...
Mollys.Game.Alles.auf.eine.K...
Mollys.Game.Alles.auf.eine.K...
Low.Budget.Stuntman.2017.DUA...
Low.Budget.Stuntman.2017.Ger...
Low.Budget.Stuntman.2017.Ger...
Game.Night.2018.MULTI.COMPLE...
God.of.War.2017.MULTi.COMPLE...
God.of.War.2017.German.1080p...
God.of.War.2017.German.720p....

Cinedubs
Gans.im.Glueck.2018.German.A...
Gans.im.Glueck.2018.German.A...
Die.Frau.die.vorausgeht.2017...
Die.Frau.die.vorausgeht.2017...
Super.Troopers.2.2018.German...
Thoroughbreds.2017.German.AC...
Thoroughbreds.2017.German.AC...
Vom.Ende.einer.Geschichte.20...
Vom.Ende.einer.Geschichte.20...
I.Feel.Pretty.2018.German.AC...

Neuerscheinungen 2017-18
Das.Schweigen.The.Silence.19...
Teenage.Mutant.Ninja.Turtles...
Der.Gejagte.Ritter.der.Nacht...
Startup.2001.German.DTS.DL.1...
Startup.2001.German.DTS.720p...
Banditen.2001.German.DL.1080...
Banditen.2001.German.720p.Bl...
Queimada.1969.MULTi.COMPLETE...
Dwelling.2016.COMPLETE.BLURA...
Startup.Traue.nur.dir.selbst...

XXX
Black.Shack.6.XXX.1080P.WEBR...
Buttman.Focused.Brazil.XXX.1...
Christophs.Anal.Attraction.6...
Intimacy.2.XXX.1080P.WEBRIP....
Deep.In.Latin.Cheeks.6.XXX.7...
Face.Sitting.Schoolgirls.XXX...
DarkX.18.07.05.Victoria.Voxx...
DevilsFilm.18.07.05.Summer.D...
GirlsWay.18.07.05.Syren.De.M...
HarmonyVision.18.07.05.Misha...
ImmoralLive.18.07.05.Carolin...
OnlyTeenBlowJobs.18.07.05.Ma...
PornstarPlatinum.18.07.05.Jo...
PureTaboo.18.07.05.Kenna.Jam...
SweetSinner.18.07.05.Kenna.J...
Tiny4K.18.07.05.Ava.Haze.Cre...
LetsTryAnal.18.07.05.Adria.R...
PornstarsLikeItBig.18.07.05....
RealWifeStories.18.07.05.Ari...
Babes.18.07.05.Jessa.Rhodes....

3D
Ready.Player.One.2018.3D.HOU...
Ready.Player.One.2018.3D.HSB...
Ready.Player.One.3D.2018.MUL...
Black.Panther.3D.2018.MULTI....
Black.Panther.3D.HOU.2018.Ge...
Black.Panther.3D.HSBS.2018.G...
Best.of.3D.vol.04.-.06.GERMA...
Tomb.Raider.2018.3D.HOU.Germ...
Tomb.Raider.2018.3D.HSBS.Ger...
Tomb.Raider.2018.3D.COMPLETE...
Zombies.Ueberlebe.die.Untote...
Der.Dschungel.Der.Zauber.ein...
Penthouse.Presents.Sexy.Sing...
The.LEGO.Ninjago.Movie.3D.20...
Zombies.Ueberlebe.die.Untote...

Old_Stuff
Meine.liebe.Rabenmutter.germ...
Da.Vincis.Demons.S01.Complet...
Eragon.Das.Vermaechtnis.der....
Adele.und.das.Geheimnis.des....
Die.fabelhafte.Welt.der.Amel...
Haus.des.Geldes.S01.German.M...
How.I.Met.Your.Mother.S01.Ge...
The.Dark.Knight.Rises.2012.M...
Weissensee.S03.2015.GERMAN.C...
Weissensee.S01+S02.2010.GERM...
Die.Unglaublichen.-.The.Incr...
Der.grosse.Trick.1978.German...
Sully.2016.MULTi.COMPLETE.BL...
Tremors.3.Die.neue.Brut.2001...
Die.Indianer.von.Cleveland.2...

Filme
Die.Nacht.der.offenen.Saerge...
Insel.des.Schreckens.-.Islan...
Unheimliche.Begegnung.1983.G...
Swinger.Versuchung.Verfuehru...
The.Return.of.Joe.Rich.Das.n...
The.Red.Eagle.2010.German.10...
Zwei.Nasen.tanken.super.1984...
Die.Supernasen.1983.German.A...
Cinema.Paradiso.1988.German....
Sein.Maedchen.fuer.besondere...
Sein.Maedchen.fuer.besondere...
Gefangene.im.Weltraum.1986.G...
Wir.kommen.alle.in.den.Himme...
Marvels.Agents.of.S.H.I.E.L....
Banditen.2001.German.DL.1080...
Altered.2006.German.AC3D.DL....
Class.Of.Nukem.High.1986.Ger...
Der.Weisse.Bueffel.1977.Germ...
Der.Weisse.Bueffel.1977.Germ...
Bloodbrothers.Jiang.Hu.2004....
12.Strong.Die.wahre.Geschich...
American.Sniper.2014.German....
The.Disaster.Artist.2017.Ger...
Startup.2001.German.1080p.DL...

 
 
Black.Swan.German.720p.BluRay.x264-RSG
Jahr: 2010
Genre: Drama | Mystery | Thriller
Sprache: Deutsch DTS
Laufzeit: 1h 48mn
Bitrate: 7 238 Kbps
Format: MKV
Größe: 5.47 GiB
Release:

Beschreibung:

Die Ballerina Nina (Natalie Portman) kann die Rolle ihres Lebens ergattern, die Hauptrolle in einer Neuinszenierung von "Schwanensee". Angetrieben von ihrer ehrgeizigen Mutter (Barbara Hershey) und vom Regisseur Thomas Leroy (Vincent Cassel) setzt Nina ihre ganze Leidenschaft in die Vorbereitung auf die Doppelrolle. Probleme hat sie jedoch mit der Verkörperung des schwarzen Schwans - für diesen muss sie laut Leroy ihre dunkle, verführerische Seite heraus lassen, aber da das etwas ist, was man nicht durch technische Perfektion und Übung erreichen kann, tut sie sich schwer damit. Ihre Konkurrentin, die jüngere, sinnliche Tänzerin Lily (Mila Kunis) hat damit jedoch kein Problem. Sie wird von Leroy schließlich zur zweiten Besetzung ernannt, was Nina sehr zu schaffen macht. 
Die Belastung und der Erfolgsdruck von allen Seiten setzen Nina so sehr zu, das in Ihrer Wahrnehmung Realität und Phantasie miteinander verschmelzen...



General
Unique ID                                : 195148105485473960746586860071261333735 (0x92D0287253B536039CB8F62702CC68E7)
Complete name                            : rsg-blackswan-720p.mkv
Format                                   : Matroska
Format version                           : Version 2
File size                                : 5.47 GiB
Duration                                 : 1h 48mn
Overall bit rate                         : 7 238 Kbps
Encoded date                             : UTC 2011-05-20 12:13:06
Writing application                      : mkvmerge v4.7.0 ('Just Like You Imagined') gebaut am Apr 21 2011 01:13:14
Writing library                          : libebml v1.2.0 + libmatroska v1.1.0

Video
ID                                       : 1
Format                                   : AVC
Format/Info                              : Advanced Video Codec
Format profile                           : High@L4.1
Format settings, CABAC                   : Yes
Format settings, ReFrames                : 5 frames
Codec ID                                 : V_MPEG4/ISO/AVC
Duration                                 : 1h 48mn
Bit rate                                 : 6 469 Kbps
Width                                    : 1 280 pixels
Height                                   : 528 pixels
Display aspect ratio                     : 2.40:1
Frame rate mode                          : Constant
Frame rate                               : 23.976 (24000/1001) fps
Color space                              : YUV
Chroma subsampling                       : 4:2:0
Bit depth                                : 8 bits
Scan type                                : Progressive
Bits/(Pixel*Frame)                       : 0.399
Stream size                              : 4.78 GiB (87%)
Writing library                          : x264 core 115 r1995 c1e60b9
Encoding settings                        : cabac=1 / ref=5 / deblock=1:0:0 / analyse=0x3:0x133 / me=umh / subme=7 / psy=1 / psy_rd=1.00:0.00 / mixed_ref=1 / me_range=16 / chroma_me=1 / trellis=1 / 8x8dct=1 / cqm=0 / deadzone=21,11 / fast_pskip=0 / chroma_qp_offset=-1 / threads=12 / sliced_threads=0 / nr=0 / decimate=1 / interlaced=0 / bluray_compat=0 / constrained_intra=0 / bframes=3 / b_pyramid=2 / b_adapt=1 / b_bias=0 / direct=3 / weightb=1 / open_gop=0 / weightp=2 / keyint=250 / keyint_min=23 / scenecut=40 / intra_refresh=0 / rc_lookahead=40 / rc=2pass / mbtree=1 / bitrate=6469 / ratetol=1.0 / qcomp=0.60 / qpmin=10 / qpmax=51 / qpstep=4 / cplxblur=20.0 / qblur=0.5 / ip_ratio=1.40 / aq=1:1.00
Language                                 : English
Default                                  : Yes
Forced                                   : No

Audio
ID                                       : 2
Format                                   : DTS
Format/Info                              : Digital Theater Systems
Mode                                     : 16
Format settings, Endianness              : Big
Codec ID                                 : A_DTS
Duration                                 : 1h 48mn
Bit rate mode                            : Constant
Bit rate                                 : 768 Kbps
Channel(s)                               : 6 channels
Channel positions                        : Front: L C R, Side: L R, LFE
Sampling rate                            : 48.0 KHz
Frame rate                               : 93.750 fps (512 spf)
Bit depth                                : 24 bits
Compression mode                         : Lossy
Stream size                              : 594 MiB (11%)
Language                                 : German
Default                                  : Yes
Forced                                   : No

Text
ID                                       : 3
Format                                   : UTF-8
Codec ID                                 : S_TEXT/UTF8
Codec ID/Info                            : UTF-8 Plain Text
Language                                 : German
Default                                  : Yes
Forced                                   : Yes


Download:
Share Online | Uploaded Share Online | UploadedShare Online | UploadedShare Online | Uploaded
 

Kommentare