DNS SERVER AENDERNum der staatlichen Zensur zu umgehen. Sollten wir von eurem Provider geseprrt werden, nutzt den TOR BROWSER oder ändert euren DNS SERVER.

Filmwünsche können bei uns im Forum abgegeben werden

Wir Speichern Nicht




 
 
 
Top Releases
Chappie.2015.German.AC3.DL.1...
Solo.A.Star.Wars.Story.2018....
Der.Buchladen.der.Florance.G...
Jurassic.World.2.Das.gefalle...
Jurassic.World.2.Das.gefalle...
Racer.and.the.Jailbird.2017....
Racer.and.the.Jailbird.2017....
Racer.and.the.Jailbird.2017....
The.Girl.on.Train.2016.PROPE...
Solo.A.Star.Wars.Story.2018....

Cinedubs
First.Reformed.German.DL.AC3...
The.First.Purge.2018.German....
No.Way.Out.Gegen.die.Flammen...
First.Reformed.German.DL.AC3...
First.Reformed.German.DL.AC3...
The.First.Purge.German.DL.AC...
The.First.Purge.German.DL.AC...
Book.Club.Das.Beste.kommt.n...
Book.Club.Das.Beste.kommt.n...
Sicario.2.2018.German.AC3MD....

Neuerscheinungen 2017-18
The.Hurricane.Heist.2018.Ger...
Alte.Zoepfe.2018.German.DL.1...
Alte.Zoepfe.2018.German.DL.7...
Gosford.Park.2001.MULTi.COMP...
Steig.Nicht.Aus.2018.German....
Steig.Nicht.Aus.2018.German....
Triassic.World.2018.German.7...
Triassic.World.2018.German.D...
Steig.Nicht.Aus.2018.GERMAN....
Triassic.World.2018.MULTi.CO...

XXX
GroupSexGames.18.09.09.Wendy...
HerLimit.18.09.07.Giorgia.Ro...
Granny.Goes.Hard.XXX.1080p.W...
Horny.Shopping.Tour.XXX.720p...
ATKGirlfriends.18.09.10.Lucy...
From.Teen.Ass.To.Teen.Mouth....
GirlsOutWest.18.09.10.Trilli...
Huge.Nipples.Huge.Tits.23.XX...
HouseOfTaboo.18.09.07.Molly....
GirlsOutWest.18.09.09.Jessie...
ATKHairy.18.09.09.Helen.Volg...
GroupBanged.18.09.10.Horny.B...
Granny.Goes.Hard.XXX.720p.WE...
Hole.Lotta.Love.3.XXX.1080p....
Huge.Nipples.Huge.Tits.23.XX...
GangbangCreampie.18.09.07.G1...
Horny.Shopping.Tour.XXX.1080...
HardX.18.09.07.Candice.Dare....
GirlsGoneWild.18.09.03.Brook...
FullyClothedPissing.18.09.09...

3D
Solo.A.Star.Wars.Story.3D.20...
Solo.A.Star.Wars.Story.3D.20...
Die.Biene.Maja.2.Die.Honigsp...
Avengers.Infinity.War.3D.201...
Avengers.Infinity.War.3D.201...
Rampage.Big.Meets.Bigger.3D....
Rampage.Big.Meets.Bigger.3D....
Rampage.Big.Meets.Bigger.3D....
Winter.Games.3D.2013.DUAL.CO...
Tomb.Raider.3D.2018.German.7...
Rampage.Big.Meets.Bigger.3D....
Rampage.Big.Meets.Bigger.3D....
Tomb.Raider.3D.2018.MULTi.CO...
Pacific.Rim.Uprising.3D.2018...
Ready.Player.One.3D.2018.Ger...

Old_Stuff
How.I.Met.Your.Mother.S02.Ge...
Akte.X.S01.German.DTS.DL.108...
Den.Himmel.gibts.echt.DL.108...
Vikings.S02.German.DL.1080p....
Be.Kind.Rewind.Abgedreht.200...
Be.Kind.Rewind.Abgedreht.200...
Dracula.The.Dark.Lord.2012.G...
21.2008.German.DL.1080p.BluR...
Achtung.fertig.WK.Swissgerma...
The.Ouija.Exorcism.2015.MULT...
Meine.liebe.Rabenmutter.germ...
Da.Vincis.Demons.S01.Complet...
Eragon.Das.Vermaechtnis.der....
Adele.und.das.Geheimnis.des....
Die.fabelhafte.Welt.der.Amel...

Filme
iZombie.S04.German.DD51.Dubb...
Akte.X.S02.COMPLETE.German.A...
Das.Geheimnis.von.Green.Lake...
Fackeln.im.Sturm.aka.North.a...
Krieg.der.Eispiraten.-.The.I...
11.14.Elevenfourteen.2003.Ge...
Batman.S01.COMPLETE.German.A...
MotoGP.Moto2.Moto3.Saison.20...
Straw.Dogs.Wer.Gewalt.saet.2...
MotoGP.Moto2.Moto3.Saison.20...
Cardinal.S01D01+2.MULTi.COMP...
The.Flash.2014.S04.GERMAN.10...
Modern.Family.S08.GERMAN.DUB...
Modern.Family.S08.GERMAN.DUB...
Marvels.Agents.of.S.H.I.E.L....
Marvels.Agents.of.S.H.I.E.L....
Duff.Hast.du.keine.bist.du.e...
Zwischen.Himmel.und.Hoelle.1...
Natty.Ganns.Reise.Ins.Abente...
Saw.VI.UNRATED.2009.German.A...
Saw.IV.UNRATED.2007.German.A...
Out.for.a.Kill.2003.German.7...
Out.for.a.Kill.2003.German.D...
The.Purge.S01.German.DD+51.D...

 
 
All.Saints.2017.720p.BluRay.x264-DRONES
Jahr: 2017
Genre: Drama
Sprache: Englisch DTS
Laufzeit: 1h 48mn
Bitrate: 5 751 Kbps
Format: MKV
Größe: 4.37 GiB
Release:

Beschreibung:
Nachdem er seinen Wirtschaftsjob aufgegeben hat, um Priester zu werden, ist die erste Gemeinde von Michael Spurlock (John Corbett) All Saints, deren Kirche gerade einmal zwölf Gläubige angehören. Aber die Sache hat einen Haken: Er ist derjenige, der die Kirche für immer schließen und das Land, auf dem sie steht, gewinnbringend verkaufen soll. Während sich Bieter um das Land streiten und die kleine Gemeinde mit ihrem Schicksal hadert, planen Michael und seine Familie schon ihren Umzug in eine größere Gemeinde. Doch als All Saints beginnt, Flüchtlinge aus Burma aufzunehmen, sieht sich der Priester mit einer neuen Mission beauftragt. Er versucht, den Einwanderern zu einem frischen Start in den Vereinigten Staaten zu verhelfen. Und auch er selbst muss sich bakd zwischen zwei Fronten entscheiden: Bleibt er bei seiner Gemeinde, hilft den alten und den neuen Mitgliedern, oder erfüllt er doch seine Aufgabe, verkauft das Land der Kirche und setzt seine Priester-Karriere in einem größeren Ort fort?


Format                                   : Matroska
Format version                           : Version 4 / Version 2
File size                                : 4.37 GiB
Duration                                 : 1h 48mn
Overall bit rate                         : 5 751 Kbps
Encoded date                             : UTC 2017-11-24 20:19:20
Writing application                      : mkvmerge v17.0.0 ('Be Ur Friend') 64-bit
Writing library                          : libebml v1.3.5 + libmatroska v1.4.8
DURATION                                 : 01:09:36.923000000
NUMBER_OF_FRAMES                         : 21
NUMBER_OF_BYTES                          : 612
_STATISTICS_WRITING_APP                  : mkvmerge v17.0.0 ('Be Ur Friend') 64-bit
_STATISTICS_WRITING_DATE_UTC             : 2017-11-24 20:19:20
_STATISTICS_TAGS                         : BPS DURATION NUMBER_OF_FRAMES NUMBER_OF_BYTES

Video
ID                                       : 1
Format                                   : AVC
Format/Info                              : Advanced Video Codec
Format profile                           : High@L4.1
Format settings, CABAC                   : Yes
Format settings, ReFrames                : 5 frames
Codec ID                                 : V_MPEG4/ISO/AVC
Duration                                 : 1h 48mn
Bit rate                                 : 4 240 Kbps
Width                                    : 1 280 pixels
Height                                   : 536 pixels
Display aspect ratio                     : 2.40:1
Frame rate mode                          : Constant
Frame rate                               : 23.976 fps
Color space                              : YUV
Chroma subsampling                       : 4:2:0
Bit depth                                : 8 bits
Scan type                                : Progressive
Bits/(Pixel*Frame)                       : 0.258
Stream size                              : 3.14 GiB (72%)
Writing library                          : x264 core 152 r2851 ba24899
Encoding settings                        : cabac=1 / ref=5 / deblock=1:0:0 / analyse=0x3:0x133 / me=umh / subme=7 / psy=1 / psy_rd=1.00:0.00 / mixed_ref=1 / me_range=16 / chroma_me=1 / trellis=1 / 8x8dct=1 / cqm=0 / deadzone=21,11 / fast_pskip=0 / chroma_qp_offset=-2 / threads=17 / lookahead_threads=2 / sliced_threads=0 / nr=0 / decimate=1 / interlaced=0 / bluray_compat=0 / constrained_intra=0 / bframes=3 / b_pyramid=2 / b_adapt=1 / b_bias=0 / direct=1 / weightb=1 / open_gop=0 / weightp=2 / keyint=250 / keyint_min=23 / scenecut=40 / intra_refresh=0 / rc_lookahead=40 / rc=2pass / mbtree=1 / bitrate=4240 / ratetol=1.0 / qcomp=0.60 / qpmin=0 / qpmax=69 / qpstep=4 / cplxblur=20.0 / qblur=0.5 / ip_ratio=1.40 / aq=1:1.00
Language                                 : English
Default                                  : Yes
Forced                                   : No
DURATION                                 : 01:48:49.523000000
NUMBER_OF_FRAMES                         : 156552
NUMBER_OF_BYTES                          : 3460653749
_STATISTICS_WRITING_APP                  : mkvmerge v17.0.0 ('Be Ur Friend') 64-bit
_STATISTICS_WRITING_DATE_UTC             : 2017-11-24 20:19:20
_STATISTICS_TAGS                         : BPS DURATION NUMBER_OF_FRAMES NUMBER_OF_BYTES

Audio
ID                                       : 2
Format                                   : DTS
Format/Info                              : Digital Theater Systems
Mode                                     : 16
Format settings, Endianness              : Big
Codec ID                                 : A_DTS
Duration                                 : 1h 48mn
Bit rate mode                            : Constant
Bit rate                                 : 1 509 Kbps
Channel(s)                               : 6 channels
Channel positions                        : Front: L C R, Side: L R, LFE
Sampling rate                            : 48.0 KHz
Bit depth                                : 24 bits
Compression mode                         : Lossy
Stream size                              : 1.15 GiB (26%)
Language                                 : English
Default                                  : Yes
Forced                                   : No

Text
ID                                       : 3
Format                                   : UTF-8
Codec ID                                 : S_TEXT/UTF8
Codec ID/Info                            : UTF-8 Plain Text
Language                                 : English
Default                                  : Yes
Forced                                   : Yes


Download:
Share Online Share OnlineShare OnlineShare Online
 

Kommentare