DNS SERVER AENDERNum der staatlichen Zensur zu umgehen. Sollten wir von eurem Provider geseprrt werden, nutzt den TOR BROWSER oder ändert euren DNS SERVER.

Filmwünsche können bei uns im Forum abgegeben werden

Wir Speichern Nicht




 
 
 
Top Releases
Chappie.2015.German.AC3.DL.1...
Solo.A.Star.Wars.Story.2018....
Der.Buchladen.der.Florance.G...
Jurassic.World.2.Das.gefalle...
Jurassic.World.2.Das.gefalle...
Racer.and.the.Jailbird.2017....
Racer.and.the.Jailbird.2017....
Racer.and.the.Jailbird.2017....
The.Girl.on.Train.2016.PROPE...
Solo.A.Star.Wars.Story.2018....

Cinedubs
First.Reformed.German.DL.AC3...
The.First.Purge.2018.German....
No.Way.Out.Gegen.die.Flammen...
First.Reformed.German.DL.AC3...
First.Reformed.German.DL.AC3...
The.First.Purge.German.DL.AC...
The.First.Purge.German.DL.AC...
Book.Club.Das.Beste.kommt.n...
Book.Club.Das.Beste.kommt.n...
Sicario.2.2018.German.AC3MD....

Neuerscheinungen 2017-18
The.Hurricane.Heist.2018.Ger...
Alte.Zoepfe.2018.German.DL.1...
Alte.Zoepfe.2018.German.DL.7...
Gosford.Park.2001.MULTi.COMP...
Steig.Nicht.Aus.2018.German....
Steig.Nicht.Aus.2018.German....
Triassic.World.2018.German.7...
Triassic.World.2018.German.D...
Steig.Nicht.Aus.2018.GERMAN....
Triassic.World.2018.MULTi.CO...

XXX
GroupSexGames.18.09.09.Wendy...
HerLimit.18.09.07.Giorgia.Ro...
Granny.Goes.Hard.XXX.1080p.W...
Horny.Shopping.Tour.XXX.720p...
ATKGirlfriends.18.09.10.Lucy...
From.Teen.Ass.To.Teen.Mouth....
GirlsOutWest.18.09.10.Trilli...
Huge.Nipples.Huge.Tits.23.XX...
HouseOfTaboo.18.09.07.Molly....
GirlsOutWest.18.09.09.Jessie...
ATKHairy.18.09.09.Helen.Volg...
GroupBanged.18.09.10.Horny.B...
Granny.Goes.Hard.XXX.720p.WE...
Hole.Lotta.Love.3.XXX.1080p....
Huge.Nipples.Huge.Tits.23.XX...
GangbangCreampie.18.09.07.G1...
Horny.Shopping.Tour.XXX.1080...
HardX.18.09.07.Candice.Dare....
GirlsGoneWild.18.09.03.Brook...
FullyClothedPissing.18.09.09...

3D
Solo.A.Star.Wars.Story.3D.20...
Solo.A.Star.Wars.Story.3D.20...
Die.Biene.Maja.2.Die.Honigsp...
Avengers.Infinity.War.3D.201...
Avengers.Infinity.War.3D.201...
Rampage.Big.Meets.Bigger.3D....
Rampage.Big.Meets.Bigger.3D....
Rampage.Big.Meets.Bigger.3D....
Winter.Games.3D.2013.DUAL.CO...
Tomb.Raider.3D.2018.German.7...
Rampage.Big.Meets.Bigger.3D....
Rampage.Big.Meets.Bigger.3D....
Tomb.Raider.3D.2018.MULTi.CO...
Pacific.Rim.Uprising.3D.2018...
Ready.Player.One.3D.2018.Ger...

Old_Stuff
How.I.Met.Your.Mother.S02.Ge...
Akte.X.S01.German.DTS.DL.108...
Den.Himmel.gibts.echt.DL.108...
Vikings.S02.German.DL.1080p....
Be.Kind.Rewind.Abgedreht.200...
Be.Kind.Rewind.Abgedreht.200...
Dracula.The.Dark.Lord.2012.G...
21.2008.German.DL.1080p.BluR...
Achtung.fertig.WK.Swissgerma...
The.Ouija.Exorcism.2015.MULT...
Meine.liebe.Rabenmutter.germ...
Da.Vincis.Demons.S01.Complet...
Eragon.Das.Vermaechtnis.der....
Adele.und.das.Geheimnis.des....
Die.fabelhafte.Welt.der.Amel...

Filme
...
Akte.X.S02.COMPLETE.German.A...
Das.Geheimnis.von.Green.Lake...
Fackeln.im.Sturm.aka.North.a...
Krieg.der.Eispiraten.-.The.I...
11.14.Elevenfourteen.2003.Ge...
Batman.S01.COMPLETE.German.A...
MotoGP.Moto2.Moto3.Saison.20...
Straw.Dogs.Wer.Gewalt.saet.2...
MotoGP.Moto2.Moto3.Saison.20...
Cardinal.S01D01+2.MULTi.COMP...
The.Flash.2014.S04.GERMAN.10...
Modern.Family.S08.GERMAN.DUB...
Modern.Family.S08.GERMAN.DUB...
Marvels.Agents.of.S.H.I.E.L....
Marvels.Agents.of.S.H.I.E.L....
Duff.Hast.du.keine.bist.du.e...
Zwischen.Himmel.und.Hoelle.1...
Natty.Ganns.Reise.Ins.Abente...
Saw.VI.UNRATED.2009.German.A...
Saw.IV.UNRATED.2007.German.A...
Out.for.a.Kill.2003.German.7...
Out.for.a.Kill.2003.German.D...
The.Purge.S01.German.DD+51.D...

 
 
Bunraku.2010.German.AC3.DL.1080p.BluRay.x265-FuN
Jahr: 2010
Genre: Action, Drama, Fantasy
Sprache: Deutsch AC3 | Englisch AC3
Laufzeit: 1h 59mn
Bitrate: 2 323 Kbps
Format: MKV
Größe: 1.94 GiB
Release:

Beschreibung:

In einer Welt, in der es keine Feuerwaffen gibt, ist derjenige an der Macht, der der Stärkere ist. Gangsterboss Nikola regiert das Land mit der Armee der Roten, angeführt von Killer Nr. 2. Ein mysteriöser Fremder und der Samuraikämpfer Yoshi müssen sich zusammen-schließen, um den mächtigen Tyrannen zu stürzen. Vom Barkeeper des Horseless Horsemen bekommen sie Unterstützung und stellen sich der bermacht der Roten...



)
Complete name                            : Bunraku.x265.mkv
Format                                   : Matroska
Format version                           : Version 4 / Version 2
File size                                : 1.94 GiB
Duration                                 : 1h 59mn
Overall bit rate                         : 2 323 Kbps
Encoded date                             : UTC 2017-12-08T12:06:40Z
Writing application                      : HandBrake 1.0.7 2017040900
Writing library                          : Lavf57.7.2

Video
ID                                       : 1
Format                                   : HEVC
Format/Info                              : High Efficiency Video Coding
Format profile                           : Main@L4.0
Codec ID                                 : V_MPEGH/ISO/HEVC
Duration                                 : 1h 59mn
Bit rate                                 : 1 509 Kbps
Width                                    : 1 920 pixels
Height                                   : 816 pixels
Display aspect ratio                     : 2.35:1
Frame rate mode                          : Constant
Frame rate                               : 25.000 fps
Color space                              : YUV
Chroma subsampling                       : 4:2:0
Bit depth                                : 8 bits
Bits/(Pixel*Frame)                       : 0.039
Stream size                              : 1.26 GiB (65%)
Writing library                          : x265 2.1:[Windows][GCC 5.3.1][64 bit] 8bit
Encoding settings                        : wpp / ctu=64 / min-cu-size=8 / max-tu-size=32 / tu-intra-depth=1 / tu-inter-depth=1 / me=1 / subme=2 / merange=57 / no-rect / no-amp / max-merge=2 / temporal-mvp / no-early-skip / rskip / rdpenalty=0 / no-tskip / no-tskip-fast / no-strong-intra-smoothing / no-lossless / no-cu-lossless / no-constrained-intra / no-fast-intra / open-gop / no-temporal-layers / interlace=0 / keyint=250 / min-keyint=25 / scenecut=40 / rc-lookahead=20 / lookahead-slices=5 / bframes=4 / bframe-bias=0 / b-adapt=2 / ref=3 / limit-refs=3 / no-limit-modes / weightp / no-weightb / aq-mode=1 / qg-size=32 / aq-strength=1.00 / cbqpoffs=0 / crqpoffs=0 / rd=3 / psy-rd=2.00 / rdoq-level=0 / psy-rdoq=0.00 / log2-max-poc-lsb=8 / no-rd-refine / signhide / deblock=0:0 / no-sao / no-sao-non-deblock / b-pyramid / cutree / no-intra-refresh / rc=crf / crf=23.0 / qcomp=0.60 / qpmin=0 / qpmax=69 / qpstep=4 / ipratio=1.40 / pbratio=1.30
Default                                  : Yes
Forced                                   : No

Audio #1
ID                                       : 2
Format                                   : AC-3
Format/Info                              : Audio Coding 3
Mode extension                           : CM (complete main)
Format settings, Endianness              : Big
Codec ID                                 : A_AC3
Duration                                 : 1h 59mn
Bit rate mode                            : Constant
Bit rate                                 : 384 Kbps
Channel(s)                               : 6 channels
Channel positions                        : Front: L C R, Side: L R, LFE
Sampling rate                            : 48.0 KHz
Bit depth                                : 16 bits
Compression mode                         : Lossy
Delay relative to video                  : -5ms
Stream size                              : 328 MiB (17%)
Title                                    : Surround
Language                                 : German
Default                                  : Yes
Forced                                   : No

Audio #2
ID                                       : 3
Format                                   : AC-3
Format/Info                              : Audio Coding 3
Mode extension                           : CM (complete main)
Format settings, Endianness              : Big
Codec ID                                 : A_AC3
Duration                                 : 1h 59mn
Bit rate mode                            : Constant
Bit rate                                 : 384 Kbps
Channel(s)                               : 6 channels
Channel positions                        : Front: L C R, Side: L R, LFE
Sampling rate                            : 48.0 KHz
Bit depth                                : 16 bits
Compression mode                         : Lossy
Delay relative to video                  : -5ms
Stream size                              : 328 MiB (17%)
Title                                    : Surround
Language                                 : English
Default                                  : No
Forced                                   : No

Text #1
ID                                       : 4
Format                                   : VobSub
Codec ID                                 : S_VOBSUB
Codec ID/Info                            : The same subtitle format used on DVDs
Language                                 : German
Default                                  : Yes
Forced                                   : Yes

Text #2
ID                                       : 5
Format                                   : VobSub
Codec ID                                 : S_VOBSUB
Codec ID/Info                            : The same subtitle format used on DVDs
Language                                 : German
Default                                  : No
Forced                                   : No


Download:
Share Online Share OnlineShare OnlineShare Online
 

Kommentare